<?xml version="1.0" standalone="no"?>
<!DOCTYPE svg PUBLIC "-//W3C//DTD SVG 1.1//EN" "http://www.w3.org/Graphics/SVG/1.1/DTD/svg11.dtd" >
<svg xmlns="http://www.w3.org/2000/svg">
<defs>
  <font id="flaticon" horiz-adv-x="300">
    <font-face font-family="flaticon"
      units-per-em="300" ascent="300"
      descent="0" />
    <missing-glyph horiz-adv-x="0" />
    <glyph glyph-name="002-download"
      unicode="&#xF101;"
      horiz-adv-x="300" d="M274.1834882958005 228.159012669687L150.0143265880711 103.9599519955484L25.8451648803418 228.1739621528917C19.9251695312922 234.0939575019414 10.3487797484334 234.0939575019414 4.4287843993837 228.1739621528917C-1.4762614664613 222.253966803842 -1.4762614664613 212.6626275377786 4.4287843993837 206.7426321887289L139.2992845011233 71.8272836373754L139.2992845011233 71.8272836373754L139.2992845011233 71.8272836373754C145.2043303669683 65.9072882883257 154.7956696330317 65.9072882883257 160.7007154988767 71.8272836373754L295.5712156006163 206.7413863984619C301.4762614664613 212.6613817475116 301.4762614664613 222.2676704967797 295.5712156006163 228.1876658458293C289.6811192179759 234.0790080187367 280.0885341616455 234.0790080187367 274.1834882958005 228.159012669687z" />
    <glyph glyph-name="002-download-1"
      unicode="&#x30;&#x30;&#x32;&#x2D;&#x64;&#x6F;&#x77;&#x6E;&#x6C;&#x6F;&#x61;&#x64;"
      horiz-adv-x="300" d="M274.1834882958005 228.159012669687L150.0143265880711 103.9599519955484L25.8451648803418 228.1739621528917C19.9251695312922 234.0939575019414 10.3487797484334 234.0939575019414 4.4287843993837 228.1739621528917C-1.4762614664613 222.253966803842 -1.4762614664613 212.6626275377786 4.4287843993837 206.7426321887289L139.2992845011233 71.8272836373754L139.2992845011233 71.8272836373754L139.2992845011233 71.8272836373754C145.2043303669683 65.9072882883257 154.7956696330317 65.9072882883257 160.7007154988767 71.8272836373754L295.5712156006163 206.7413863984619C301.4762614664613 212.6613817475116 301.4762614664613 222.2676704967797 295.5712156006163 228.1876658458293C289.6811192179759 234.0790080187367 280.0885341616455 234.0790080187367 274.1834882958005 228.159012669687z" />
    <glyph glyph-name="003-down-arrow-1"
      unicode="&#xF102;"
      horiz-adv-x="300" d="M296.3344537519702 227.5843683045872C291.447254062901 232.4715679936564 283.5472284775132 232.4715679936564 278.660028788444 227.5843683045872L149.9997070375441 98.9246324785991L21.339971211556 227.5843683045872C16.4527715224868 232.4715679936564 8.552745937099 232.4715679936564 3.6655462480298 227.5843683045872S-1.2216534410394 214.7971430301302 3.6655462480298 209.909943341061L141.1627875182369 72.412702070854C143.6002351511979 69.9752544378929 146.799971094371 68.750085447383 150.0002929624559 68.750085447383C153.2006148305408 68.750085447383 156.4003507737139 69.975254437893 158.8377984066749 72.412702070854L296.335039676882 209.9099433410611C301.2216534410394 214.7971430301302 301.2216534410394 222.697168615518 296.3344537519702 227.5843683045872z" />
    <glyph glyph-name="003-down-arrow-1-1"
      unicode="&#x30;&#x30;&#x33;&#x2D;&#x64;&#x6F;&#x77;&#x6E;&#x2D;&#x61;&#x72;&#x72;&#x6F;&#x77;&#x2D;&#x31;"
      horiz-adv-x="300" d="M296.3344537519702 227.5843683045872C291.447254062901 232.4715679936564 283.5472284775132 232.4715679936564 278.660028788444 227.5843683045872L149.9997070375441 98.9246324785991L21.339971211556 227.5843683045872C16.4527715224868 232.4715679936564 8.552745937099 232.4715679936564 3.6655462480298 227.5843683045872S-1.2216534410394 214.7971430301302 3.6655462480298 209.909943341061L141.1627875182369 72.412702070854C143.6002351511979 69.9752544378929 146.799971094371 68.750085447383 150.0002929624559 68.750085447383C153.2006148305408 68.750085447383 156.4003507737139 69.975254437893 158.8377984066749 72.412702070854L296.335039676882 209.9099433410611C301.2216534410394 214.7971430301302 301.2216534410394 222.697168615518 296.3344537519702 227.5843683045872z" />
    <glyph glyph-name="004-up-arrow"
      unicode="&#xF103;"
      horiz-adv-x="300" d="M296.5593682800162 94.1415901202932L174.8593258971209 215.5890929474472C161.1524631884047 229.2965415948078 138.8487086888842 229.2971275334523 125.1494631825453 215.5978820271133L3.4406317199838 94.1421760589376C-1.1402366020246 89.5706827552398 -1.147853804402 82.150941701058 3.4236394992959 77.5694874404052C7.9951328029938 72.9886191183967 15.4148738571755 72.980415977375 19.9963281178284 77.5524952197173L141.713948660056 199.0169902675592C146.2830982091762 203.585553878035 153.7174877294682 203.5861398166794 158.2954263582546 199.008201187893L280.0042578208161 77.5519092810729C282.2917622885982 75.269092322446 285.286494700185 74.1282697817769 288.2818130504162 74.1282697817769C291.2847486030246 74.1282697817769 294.2876841556331 75.2755376475345 296.5763605007041 77.5689015017608C301.1484397430463 82.1503557624136 301.1402366020247 89.5700968165954 296.5593682800162 94.1415901202932z" />
    <glyph glyph-name="004-up-arrow-1"
      unicode="&#x30;&#x30;&#x34;&#x2D;&#x75;&#x70;&#x2D;&#x61;&#x72;&#x72;&#x6F;&#x77;"
      horiz-adv-x="300" d="M296.5593682800162 94.1415901202932L174.8593258971209 215.5890929474472C161.1524631884047 229.2965415948078 138.8487086888842 229.2971275334523 125.1494631825453 215.5978820271133L3.4406317199838 94.1421760589376C-1.1402366020246 89.5706827552398 -1.147853804402 82.150941701058 3.4236394992959 77.5694874404052C7.9951328029938 72.9886191183967 15.4148738571755 72.980415977375 19.9963281178284 77.5524952197173L141.713948660056 199.0169902675592C146.2830982091762 203.585553878035 153.7174877294682 203.5861398166794 158.2954263582546 199.008201187893L280.0042578208161 77.5519092810729C282.2917622885982 75.269092322446 285.286494700185 74.1282697817769 288.2818130504162 74.1282697817769C291.2847486030246 74.1282697817769 294.2876841556331 75.2755376475345 296.5763605007041 77.5689015017608C301.1484397430463 82.1503557624136 301.1402366020247 89.5700968165954 296.5593682800162 94.1415901202932z" />
    <glyph glyph-name="006-upload"
      unicode="&#xF104;"
      horiz-adv-x="300" d="M160.6996491373762 227.9768306101688C154.8699316959744 233.8065480515706 145.1300683040256 233.8065480515706 139.2854028691843 227.9768306101688L4.4283430564494 93.4648203126622C-1.4761143521498 87.5603629040629 -1.4761143521498 77.9849274399485 4.4283430564494 72.0954180247888C10.3328004650487 66.1909606161895 19.9231839226026 66.1909606161895 25.8276413312019 72.0954180247888L149.99937716694 195.9221043452987L274.1561650092387 72.0804700313493C280.0755704112775 66.17601262275 289.6510058753919 66.17601262275 295.5704112774307 72.0804700313493C301.4748686860299 77.9849274399485 301.4748686860299 87.5603629040629 295.5704112774307 93.4498723192227L160.6996491373762 227.9768306101688z" />
    <glyph glyph-name="006-upload-1"
      unicode="&#x30;&#x30;&#x36;&#x2D;&#x75;&#x70;&#x6C;&#x6F;&#x61;&#x64;"
      horiz-adv-x="300" d="M160.6996491373762 227.9768306101688C154.8699316959744 233.8065480515706 145.1300683040256 233.8065480515706 139.2854028691843 227.9768306101688L4.4283430564494 93.4648203126622C-1.4761143521498 87.5603629040629 -1.4761143521498 77.9849274399485 4.4283430564494 72.0954180247888C10.3328004650487 66.1909606161895 19.9231839226026 66.1909606161895 25.8276413312019 72.0954180247888L149.99937716694 195.9221043452987L274.1561650092387 72.0804700313493C280.0755704112775 66.17601262275 289.6510058753919 66.17601262275 295.5704112774307 72.0804700313493C301.4748686860299 77.9849274399485 301.4748686860299 87.5603629040629 295.5704112774307 93.4498723192227L160.6996491373762 227.9768306101688z" />
    <glyph glyph-name="007-right-arrow"
      unicode="&#xF105;"
      horiz-adv-x="300" d="M227.5864493510806 158.8355582465015L90.0875968008125 296.3344107967696C85.2003398404313 301.2216677571508 77.3002216775227 301.2216677571508 72.4129647171415 296.3344107967696S67.5257077567602 283.5470356734798 72.4129647171415 278.6597787130985L201.074208259685 149.998535170555L72.4129647171414 21.3372916280114C67.5257077567602 16.4500346676302 67.5257077567602 8.5499165047216 72.4129647171414 3.6626595443403C74.850440913663 1.2251833478188 78.0502143533755 0 81.250573724866 0C84.4503471645785 0 87.650706536069 1.2251833478189 90.0881827325905 3.6626595443403L227.5870352828586 141.1615120946085C232.4737063114619 146.0481831232117 232.4737063114619 153.9483012861202 227.5864493510806 158.8355582465015z" />
    <glyph glyph-name="007-right-arrow-1"
      unicode="&#x30;&#x30;&#x37;&#x2D;&#x72;&#x69;&#x67;&#x68;&#x74;&#x2D;&#x61;&#x72;&#x72;&#x6F;&#x77;"
      horiz-adv-x="300" d="M227.5864493510806 158.8355582465015L90.0875968008125 296.3344107967696C85.2003398404313 301.2216677571508 77.3002216775227 301.2216677571508 72.4129647171415 296.3344107967696S67.5257077567602 283.5470356734798 72.4129647171415 278.6597787130985L201.074208259685 149.998535170555L72.4129647171414 21.3372916280114C67.5257077567602 16.4500346676302 67.5257077567602 8.5499165047216 72.4129647171414 3.6626595443403C74.850440913663 1.2251833478188 78.0502143533755 0 81.250573724866 0C84.4503471645785 0 87.650706536069 1.2251833478189 90.0881827325905 3.6626595443403L227.5870352828586 141.1615120946085C232.4737063114619 146.0481831232117 232.4737063114619 153.9483012861202 227.5864493510806 158.8355582465015z" />
    <glyph glyph-name="009-right"
      unicode="&#xF106;"
      horiz-adv-x="300" d="M298.1689453125 154.419140625L204.4189453125 248.169140625C201.97734375 250.6107421875 198.022265625 250.6107421875 195.58125 248.169140625C193.1396484375 245.7275390625 193.1396484375 241.7724609375 195.58125 239.3314453125L278.6625 156.2501953125H6.2501953125C2.7955078125 156.2501953125 0 153.4546875 0 150S2.7955078125 143.7498046875 6.2501953125 143.7498046875H278.6625L195.58125 60.669140625C193.1396484375 58.2275390625 193.1396484375 54.2724609375 195.58125 51.8314453125C196.8017578125 50.6109375 198.4013671875 50.000390625 200.000390625 50.000390625C201.5994140625 50.000390625 203.1984375 50.6109375 204.41953125 51.8314453125L298.16953125 145.5814453125C300.610546875 148.0224609375 300.610546875 151.9775390625 298.1689453125 154.419140625z" />
    <glyph glyph-name="009-right-1"
      unicode="&#x30;&#x30;&#x39;&#x2D;&#x72;&#x69;&#x67;&#x68;&#x74;"
      horiz-adv-x="300" d="M298.1689453125 154.419140625L204.4189453125 248.169140625C201.97734375 250.6107421875 198.022265625 250.6107421875 195.58125 248.169140625C193.1396484375 245.7275390625 193.1396484375 241.7724609375 195.58125 239.3314453125L278.6625 156.2501953125H6.2501953125C2.7955078125 156.2501953125 0 153.4546875 0 150S2.7955078125 143.7498046875 6.2501953125 143.7498046875H278.6625L195.58125 60.669140625C193.1396484375 58.2275390625 193.1396484375 54.2724609375 195.58125 51.8314453125C196.8017578125 50.6109375 198.4013671875 50.000390625 200.000390625 50.000390625C201.5994140625 50.000390625 203.1984375 50.6109375 204.41953125 51.8314453125L298.16953125 145.5814453125C300.610546875 148.0224609375 300.610546875 151.9775390625 298.1689453125 154.419140625z" />
    <glyph glyph-name="010-right-arrow-2"
      unicode="&#xF107;"
      horiz-adv-x="300" d="M202.0165131787869 252.2991425849476C197.9295014290251 256.5290568434424 191.1273420133376 256.5290568434424 186.8974277548428 252.2991425849476C182.810416005081 248.2121308351858 182.810416005081 241.4099714194983 186.8974277548428 237.332486503652L263.5598602731026 160.6700539853922H10.5843124801524C4.6872022864401 160.6605271514767 0 155.9733248650365 0 150.0762146713242C0 144.1791044776119 4.6872022864401 139.3394728485234 10.5843124801524 139.3394728485234H263.5598602731026L186.8974277548428 62.8199428389965C182.810416005081 58.5900285805018 182.810416005081 51.7783423308987 186.8974277548428 47.7008574150524C191.1273420133376 43.4709431565577 197.9390282629406 43.4709431565577 202.0165131787869 47.7008574150524L296.8275643061289 142.5119085423944C301.0574785646237 146.5989202921562 301.0574785646237 153.4010797078438 296.8275643061289 157.4785646236901L202.0165131787869 252.2991425849476z" />
    <glyph glyph-name="010-right-arrow-2-1"
      unicode="&#x30;&#x31;&#x30;&#x2D;&#x72;&#x69;&#x67;&#x68;&#x74;&#x2D;&#x61;&#x72;&#x72;&#x6F;&#x77;&#x2D;&#x32;"
      horiz-adv-x="300" d="M202.0165131787869 252.2991425849476C197.9295014290251 256.5290568434424 191.1273420133376 256.5290568434424 186.8974277548428 252.2991425849476C182.810416005081 248.2121308351858 182.810416005081 241.4099714194983 186.8974277548428 237.332486503652L263.5598602731026 160.6700539853922H10.5843124801524C4.6872022864401 160.6605271514767 0 155.9733248650365 0 150.0762146713242C0 144.1791044776119 4.6872022864401 139.3394728485234 10.5843124801524 139.3394728485234H263.5598602731026L186.8974277548428 62.8199428389965C182.810416005081 58.5900285805018 182.810416005081 51.7783423308987 186.8974277548428 47.7008574150524C191.1273420133376 43.4709431565577 197.9390282629406 43.4709431565577 202.0165131787869 47.7008574150524L296.8275643061289 142.5119085423944C301.0574785646237 146.5989202921562 301.0574785646237 153.4010797078438 296.8275643061289 157.4785646236901L202.0165131787869 252.2991425849476z" />
    <glyph glyph-name="011-left-arrow"
      unicode="&#xF108;"
      horiz-adv-x="300" d="M288.28125 161.71875H40.102734375L81.214453125 202.63125C85.8017578125 207.196875 85.8193359375 214.6166015625 81.2537109375 219.20390625C76.6880859375 223.791796875 69.2677734375 223.8087890625 64.68046875 219.24375L3.44765625 158.30625C3.4435546875 158.302734375 3.440625 158.2986328125 3.437109375 158.2951171875C-1.1384765625 153.7294921875 -1.153125 146.2857421875 3.4359375 141.7048828125C3.4400390625 141.7013671875001 3.44296875 141.697265625 3.446484375 141.69375L64.679296875 80.75625C69.266015625 76.191796875 76.686328125 76.2076171875 81.2525390625 80.79609375C85.8181640625 85.3833984375 85.8005859375 92.803125 81.21328125 97.36875L40.102734375 138.28125H288.28125C294.753515625 138.28125 300 143.527734375 300 150C300 156.472265625 294.753515625 161.71875 288.28125 161.71875z" />
    <glyph glyph-name="011-left-arrow-1"
      unicode="&#x30;&#x31;&#x31;&#x2D;&#x6C;&#x65;&#x66;&#x74;&#x2D;&#x61;&#x72;&#x72;&#x6F;&#x77;"
      horiz-adv-x="300" d="M288.28125 161.71875H40.102734375L81.214453125 202.63125C85.8017578125 207.196875 85.8193359375 214.6166015625 81.2537109375 219.20390625C76.6880859375 223.791796875 69.2677734375 223.8087890625 64.68046875 219.24375L3.44765625 158.30625C3.4435546875 158.302734375 3.440625 158.2986328125 3.437109375 158.2951171875C-1.1384765625 153.7294921875 -1.153125 146.2857421875 3.4359375 141.7048828125C3.4400390625 141.7013671875001 3.44296875 141.697265625 3.446484375 141.69375L64.679296875 80.75625C69.266015625 76.191796875 76.686328125 76.2076171875 81.2525390625 80.79609375C85.8181640625 85.3833984375 85.8005859375 92.803125 81.21328125 97.36875L40.102734375 138.28125H288.28125C294.753515625 138.28125 300 143.527734375 300 150C300 156.472265625 294.753515625 161.71875 288.28125 161.71875z" />
    <glyph glyph-name="012-left"
      unicode="&#xF109;"
      horiz-adv-x="300" d="M293.7498046875 156.2501953125H21.3380859375L104.4193359375 239.3314453125C106.8609375 241.773046875 106.8609375 245.728125 104.4193359375 248.169140625C101.977734375 250.6107421875 98.02265625 250.6107421875 95.581640625 248.169140625L1.831640625 154.419140625C-0.6099609375 151.9775390625 -0.6099609375 148.0224609375 1.831640625 145.5814453125L95.581640625 51.8314453125C96.8021484375 50.6109375 98.4017578125 50.000390625 100.00078125 50.000390625C101.5998046875 50.000390625 103.198828125 50.6109375 104.419921875 51.8314453125C106.8615234375 54.273046875 106.8615234375 58.228125 104.419921875 60.669140625L21.3380859375 143.7498046875H293.750390625C297.205078125 143.7498046875 300.0005859375 146.5453125 300.0005859375 150S297.2044921875 156.2501953125 293.7498046875 156.2501953125z" />
    <glyph glyph-name="012-left-1"
      unicode="&#x30;&#x31;&#x32;&#x2D;&#x6C;&#x65;&#x66;&#x74;"
      horiz-adv-x="300" d="M293.7498046875 156.2501953125H21.3380859375L104.4193359375 239.3314453125C106.8609375 241.773046875 106.8609375 245.728125 104.4193359375 248.169140625C101.977734375 250.6107421875 98.02265625 250.6107421875 95.581640625 248.169140625L1.831640625 154.419140625C-0.6099609375 151.9775390625 -0.6099609375 148.0224609375 1.831640625 145.5814453125L95.581640625 51.8314453125C96.8021484375 50.6109375 98.4017578125 50.000390625 100.00078125 50.000390625C101.5998046875 50.000390625 103.198828125 50.6109375 104.419921875 51.8314453125C106.8615234375 54.273046875 106.8615234375 58.228125 104.419921875 60.669140625L21.3380859375 143.7498046875H293.750390625C297.205078125 143.7498046875 300.0005859375 146.5453125 300.0005859375 150S297.2044921875 156.2501953125 293.7498046875 156.2501953125z" />
    <glyph glyph-name="013-plus"
      unicode="&#xF10A;"
      horiz-adv-x="300" d="M284.9990820703197 165.0000010546875H165.0009144140553V285.0009158203054C165.0009144140553 293.2791136462569 158.2800280603123 300 149.9990831250071 300C141.7208852990556 300 134.9999989453125 293.2791136462569 134.9999989453125 285.0009158203054V165.0000010546875H14.9990841796946C6.7208863537431 165.0000010546875 0 158.2791147009444 0 150.0009168749929C0 141.7199719396877 6.7208863537431 134.9990855859447 14.9990841796946 134.9990855859447H134.9999989453125V15.0009179296803C134.9999989453125 6.7199729943752 141.7208852990556 -0.0009133593679 149.9990831250071 -0.0009133593679C158.2800280603123 -0.0009133593679 165.0009144140553 6.7199729943752 165.0009144140553 15.0009179296803V134.9990855859447H284.9990820703197C293.2800270056248 134.9990855859447 300.0009133593678 141.7199719396877 300.0009133593678 150.0009168749928C300.0009133593678 158.2791147009444 293.2800270056248 165.0000010546875 284.9990820703197 165.0000010546875zM284.9990820703197 165.0000010546875" />
    <glyph glyph-name="013-plus-1"
      unicode="&#x30;&#x31;&#x33;&#x2D;&#x70;&#x6C;&#x75;&#x73;"
      horiz-adv-x="300" d="M284.9990820703197 165.0000010546875H165.0009144140553V285.0009158203054C165.0009144140553 293.2791136462569 158.2800280603123 300 149.9990831250071 300C141.7208852990556 300 134.9999989453125 293.2791136462569 134.9999989453125 285.0009158203054V165.0000010546875H14.9990841796946C6.7208863537431 165.0000010546875 0 158.2791147009444 0 150.0009168749929C0 141.7199719396877 6.7208863537431 134.9990855859447 14.9990841796946 134.9990855859447H134.9999989453125V15.0009179296803C134.9999989453125 6.7199729943752 141.7208852990556 -0.0009133593679 149.9990831250071 -0.0009133593679C158.2800280603123 -0.0009133593679 165.0009144140553 6.7199729943752 165.0009144140553 15.0009179296803V134.9990855859447H284.9990820703197C293.2800270056248 134.9990855859447 300.0009133593678 141.7199719396877 300.0009133593678 150.0009168749928C300.0009133593678 158.2791147009444 293.2800270056248 165.0000010546875 284.9990820703197 165.0000010546875zM284.9990820703197 165.0000010546875" />
    <glyph glyph-name="014-plus-1"
      unicode="&#xF10B;"
      horiz-adv-x="300" d="M288.28125 161.71875H161.71875V288.28125C161.71875 294.753515625 156.472265625 300 150 300C143.527734375 300 138.28125 294.753515625 138.28125 288.28125V161.71875H11.71875C5.246484375 161.71875 0 156.472265625 0 150S5.246484375 138.28125 11.71875 138.28125H138.28125V11.71875C138.28125 5.246484375 143.527734375 0 150 0S161.71875 5.246484375 161.71875 11.71875V138.28125H288.28125C294.753515625 138.28125 300 143.527734375 300 150C300 156.472265625 294.753515625 161.71875 288.28125 161.71875z" />
    <glyph glyph-name="014-plus-1-1"
      unicode="&#x30;&#x31;&#x34;&#x2D;&#x70;&#x6C;&#x75;&#x73;&#x2D;&#x31;"
      horiz-adv-x="300" d="M288.28125 161.71875H161.71875V288.28125C161.71875 294.753515625 156.472265625 300 150 300C143.527734375 300 138.28125 294.753515625 138.28125 288.28125V161.71875H11.71875C5.246484375 161.71875 0 156.472265625 0 150S5.246484375 138.28125 11.71875 138.28125H138.28125V11.71875C138.28125 5.246484375 143.527734375 0 150 0S161.71875 5.246484375 161.71875 11.71875V138.28125H288.28125C294.753515625 138.28125 300 143.527734375 300 150C300 156.472265625 294.753515625 161.71875 288.28125 161.71875z" />
    <glyph glyph-name="015-multiply"
      unicode="&#xF10C;"
      horiz-adv-x="300" d="M167.677734375 150L296.3390625 278.661328125C301.2205078125 283.5427734375 301.2205078125 291.4576171875 296.3390625 296.3390625C291.4576171875 301.2205078125 283.5427734375 301.2205078125 278.661328125 296.3390625L150 167.677734375L21.338671875 296.3390625C16.4572265625 301.2205078125 8.5423828125 301.2205078125 3.6609375 296.3390625C-1.2205078125 291.4576171875 -1.2205078125 283.5427734375 3.6609375 278.661328125L132.322265625 150L3.6609375 21.338671875C-1.2205078125 16.4572265625 -1.2205078125 8.5423828125 3.6609375 3.6609375C8.5423828125 -1.2205078125 16.4572265625 -1.2205078125 21.338671875 3.6609375L150 132.322265625L278.661328125 3.6609375C283.5427734375 -1.2205078125 291.4576171875 -1.2205078125 296.3390625 3.6609375C301.2205078125 8.5423828125 301.2205078125 16.4572265625 296.3390625 21.338671875L167.677734375 150z" />
    <glyph glyph-name="015-multiply-1"
      unicode="&#x30;&#x31;&#x35;&#x2D;&#x6D;&#x75;&#x6C;&#x74;&#x69;&#x70;&#x6C;&#x79;"
      horiz-adv-x="300" d="M167.677734375 150L296.3390625 278.661328125C301.2205078125 283.5427734375 301.2205078125 291.4576171875 296.3390625 296.3390625C291.4576171875 301.2205078125 283.5427734375 301.2205078125 278.661328125 296.3390625L150 167.677734375L21.338671875 296.3390625C16.4572265625 301.2205078125 8.5423828125 301.2205078125 3.6609375 296.3390625C-1.2205078125 291.4576171875 -1.2205078125 283.5427734375 3.6609375 278.661328125L132.322265625 150L3.6609375 21.338671875C-1.2205078125 16.4572265625 -1.2205078125 8.5423828125 3.6609375 3.6609375C8.5423828125 -1.2205078125 16.4572265625 -1.2205078125 21.338671875 3.6609375L150 132.322265625L278.661328125 3.6609375C283.5427734375 -1.2205078125 291.4576171875 -1.2205078125 296.3390625 3.6609375C301.2205078125 8.5423828125 301.2205078125 16.4572265625 296.3390625 21.338671875L167.677734375 150z" />
    <glyph glyph-name="016-multiply-1"
      unicode="&#xF10D;"
      horiz-adv-x="300" d="M167.677734375 150L296.3390625 278.661328125C301.2205078125 283.5427734375 301.2205078125 291.4576171875 296.3390625 296.3390625C291.4576171875 301.2205078125 283.5427734375 301.2205078125 278.661328125 296.3390625L150 167.677734375L21.338671875 296.3390625C16.4572265625 301.2205078125 8.5423828125 301.2205078125 3.6609375 296.3390625C-1.2205078125 291.4576171875 -1.2205078125 283.5427734375 3.6609375 278.661328125L132.322265625 150L3.6609375 21.338671875C-1.2205078125 16.4572265625 -1.2205078125 8.5423828125 3.6609375 3.6609375C8.5423828125 -1.2205078125 16.4572265625 -1.2205078125 21.338671875 3.6609375L150 132.322265625L278.661328125 3.6609375C283.5427734375 -1.2205078125 291.4576171875 -1.2205078125 296.3390625 3.6609375C301.2205078125 8.5423828125 301.2205078125 16.4572265625 296.3390625 21.338671875L167.677734375 150z" />
    <glyph glyph-name="016-multiply-1-1"
      unicode="&#x30;&#x31;&#x36;&#x2D;&#x6D;&#x75;&#x6C;&#x74;&#x69;&#x70;&#x6C;&#x79;&#x2D;&#x31;"
      horiz-adv-x="300" d="M167.677734375 150L296.3390625 278.661328125C301.2205078125 283.5427734375 301.2205078125 291.4576171875 296.3390625 296.3390625C291.4576171875 301.2205078125 283.5427734375 301.2205078125 278.661328125 296.3390625L150 167.677734375L21.338671875 296.3390625C16.4572265625 301.2205078125 8.5423828125 301.2205078125 3.6609375 296.3390625C-1.2205078125 291.4576171875 -1.2205078125 283.5427734375 3.6609375 278.661328125L132.322265625 150L3.6609375 21.338671875C-1.2205078125 16.4572265625 -1.2205078125 8.5423828125 3.6609375 3.6609375C8.5423828125 -1.2205078125 16.4572265625 -1.2205078125 21.338671875 3.6609375L150 132.322265625L278.661328125 3.6609375C283.5427734375 -1.2205078125 291.4576171875 -1.2205078125 296.3390625 3.6609375C301.2205078125 8.5423828125 301.2205078125 16.4572265625 296.3390625 21.338671875L167.677734375 150z" />
  </font>
</defs>
</svg>
